Whu does this cue file doenst show the Genre an Date

Discuss Max, an open source CD audio extractor and audio converter.
Post Reply
julcat
Posts: 1
Joined: Wed Aug 24, 2011 3:17 pm

Whu does this cue file doenst show the Genre an Date

Post by julcat » Wed Aug 24, 2011 3:21 pm

REM ACCURATERIPID 0018926c-00d4a1e2-950d9c0b
REM GENRE "Pop"
REM DATE 1987
REM DISCID 950D9C0B
REM COMMENT "ExactAudioCopy v0.99pb5"
PERFORMER "George Michael"
TITLE "Faith"
FILE "George Michael - Faith.flac" WAVE
TRACK 01 AUDIO
TITLE "Faith"
PERFORMER "George Michael"
INDEX 01 00:00:00
TRACK 02 AUDIO
TITLE "Father Figure"
PERFORMER "George Michael"
INDEX 01 03:16:35
TRACK 03 AUDIO
TITLE "I Want Your Sex (Parts 1 & 2)"
PERFORMER "George Michael"
INDEX 01 08:52:72
TRACK 04 AUDIO
TITLE "One More Try"
PERFORMER "George Michael"
INDEX 00 18:08:72
INDEX 01 18:10:20
TRACK 05 AUDIO
TITLE "Hard Day"
PERFORMER "George Michael"
INDEX 01 24:01:05
TRACK 06 AUDIO
TITLE "Hand To Mouth"
PERFORMER "George Michael"
INDEX 01 28:49:02
TRACK 07 AUDIO
TITLE "Look At Your Hands"
PERFORMER "George Michael"
INDEX 01 33:25:15
TRACK 08 AUDIO
TITLE "Monkey"
PERFORMER "George Michael"
INDEX 01 38:03:00
TRACK 09 AUDIO
TITLE "Kissing A Fool"
PERFORMER "George Michael"
INDEX 01 43:09:07
TRACK 10 AUDIO
TITLE "Hard Day (Shep Pettibone Remix)"
PERFORMER "George Michael"
INDEX 01 47:44:60
TRACK 11 AUDIO
TITLE "A Last Request (I Want Your Sex Part 3)"
PERFORMER "George Michael"
INDEX 01 54:14:57

In none of the cue files i have been testing the Date and Genre appear in Max, i have deafult settings in settings.

ivanzoid
Posts: 1
Joined: Wed Nov 30, 2011 5:26 pm

Re: Whu does this cue file doenst show the Genre an Date

Post by ivanzoid » Wed Nov 30, 2011 5:33 pm

Hi, I confirm the problem.

Post Reply

Who is online

Users browsing this forum: Yahoo [Bot] and 1 guest