Can't load tracks when open .cue

Discuss Max, an open source CD audio extractor and audio converter.
Post Reply
7455
Posts: 1
Joined: Sun May 29, 2011 3:33 pm

Can't load tracks when open .cue

Post by 7455 » Sun May 29, 2011 3:39 pm

All file from verycd site ape .cue file can't read tracks but other site is ok, is there something i could change in .cue in text edit?
I could only open using windows 7 but not max on os x

REM GENRE èàá¯òsæ´flx
REM DATE 2009
REM DISCID F5114812
REM COMMENT "ExactAudioCopy v0.99pb4"
PERFORMER "èàá¯òs"
TITLE "èàá¯òs◊Óºt"
FILE "èàá¯òs - èàá¯òs◊Óºt CD1.wav" WAVE
TRACK 01 AUDIO
TITLE "ÔL¿^¿m¥µ"
PERFORMER "èàá¯òs"
INDEX 01 00:00:00
TRACK 02 AUDIO
TITLE "“ª∆¨∞V"
PERFORMER "èàá¯òs"
INDEX 00 05:10:01
INDEX 01 05:12:31
TRACK 03 AUDIO
TITLE "≤ª≈¬º≈ƒØ"
PERFORMER "èàá¯òs"
INDEX 00 08:51:14
INDEX 01 08:53:44
TRACK 04 AUDIO
TITLE "À{…´ënÙd"
PERFORMER "èàá¯òs"
INDEX 00 13:23:41
INDEX 01 13:25:71
TRACK 05 AUDIO
TITLE "µ⁄“ª¥Œ"
PERFORMER "èàá¯òs"
INDEX 00 17:29:04
INDEX 01 17:31:34
TRACK 06 AUDIO
TITLE "ûÈäÖÊR«È"
PERFORMER "èàá¯òs"
INDEX 00 21:11:71
INDEX 01 21:14:26
TRACK 07 AUDIO
TITLE "…Ÿ≈Æ–ƒ ¬"
PERFORMER "èàá¯òs"
INDEX 00 25:17:12
INDEX 01 25:19:42
TRACK 08 AUDIO
TITLE "»´Ÿá”–ƒ„"
PERFORMER "èàá¯òs"
INDEX 00 29:16:54
INDEX 01 29:19:09
TRACK 09 AUDIO
TITLE "Stand Up"
PERFORMER "èàá¯òs"
INDEX 00 34:51:21
INDEX 01 34:53:51
TRACK 10 AUDIO
TITLE "ꀫÈÎx∫œ∆˜"
PERFORMER "èàá¯òs"
INDEX 00 37:43:55
INDEX 01 37:46:10
TRACK 11 AUDIO
TITLE "¥ÚÈ_–≈œ‰"
PERFORMER "èàá¯òs"
INDEX 00 41:53:59
INDEX 01 41:56:14
TRACK 12 AUDIO
TITLE "√‘ªÛŒ“"
PERFORMER "èàá¯òs"
INDEX 00 45:32:59
INDEX 01 45:35:14
TRACK 13 AUDIO
TITLE "”–’lπ≤¯Q"
PERFORMER "èàá¯òs"
INDEX 00 49:58:35
INDEX 01 50:00:65
TRACK 14 AUDIO
TITLE "ꀃΩ"
PERFORMER "èàá¯òs"
INDEX 00 53:53:57
INDEX 01 53:56:12
TRACK 15 AUDIO
TITLE "æ‹Ω^‘ŸÕÊ"
PERFORMER "èàá¯òs"
INDEX 00 58:07:16
INDEX 01 58:09:46
TRACK 16 AUDIO
TITLE "π≤Õ¨∂…fl^"
PERFORMER "èàá¯òs"
INDEX 00 61:43:42
INDEX 01 61:45:72
TRACK 17 AUDIO
TITLE "ŸN…Ì"
PERFORMER "èàá¯òs"
INDEX 00 66:08:69
INDEX 01 66:11:24
TRACK 18 AUDIO
TITLE "À∆ÀÆ¡˜ƒÍ"
PERFORMER "èàá¯òs"
INDEX 00 69:26:39
INDEX 01 69:28:69

mattn
Posts: 152
Joined: Tue Sep 02, 2008 4:21 am

Re: Can't load tracks when open .cue

Post by mattn » Thu Jun 02, 2011 2:20 am

Transcode your cue file to UTF8.

Post Reply

Who is online

Users browsing this forum: Majestic-12 [Bot] and 4 guests