embedded cusheet not working

Get help on playing your audio with Play.
Post Reply
schnittlich
Posts: 2
Joined: Sat Nov 10, 2007 7:35 pm

embedded cusheet not working

Post by schnittlich » Sat Nov 10, 2007 7:40 pm

hi...just downloaded r1057 for leopard. i have a bunch of flac files with embedded cuesheets (all created on xp using REACT and EAC). when i open in play, the individual tracks are not recognized. is there something that i need to set in play to make this work?

thanks,

brett

User avatar
sbooth
Site Admin
Posts: 2445
Joined: Fri Dec 23, 2005 7:45 am
Location: USA
Contact:

Re: embedded cusheet not working

Post by sbooth » Sat Nov 10, 2007 8:45 pm

You don't have to do anything to get embedded cue sheets to work- the tracks should be added automatically.

Can you verify the cuesheet using metaflac --list?

schnittlich
Posts: 2
Joined: Sat Nov 10, 2007 7:35 pm

Re: embedded cusheet not working

Post by schnittlich » Sun Nov 11, 2007 12:19 am

see the following reply from a question i posted on hydrogenaudio.org: http://www.hydrogenaudio.org/forums/ind ... opic=58921

<<<Presumably, if you used REACT, you used a CUESHEET tag, rather than FLAC's native meta data block.>>>

so i extracted a xxx.cue file from the CUESHEET tag, and it worked.

ginopalletta
Posts: 11
Joined: Fri Jan 30, 2009 8:14 pm

Re: embedded cusheet not working

Post by ginopalletta » Sat Jan 31, 2009 6:52 pm

ok so now me too i found a .flac with embedded cuesheet which is not working!
-Play rev 1077 latest
-Cog plays the .flac file
-Play does not crash, but the popup "Adding files to library..." spins the barber bar forever when i drop the .flac file into the library. Program is responsive in the back, plays and menus are ok. I can quit it. Cancel button on the popup not cancelling the import though.
-I have an external .cue file for the flac file, and it works with that, if i just drop the .cue, alone, onto the library i see the split tracks and i can play them.

down here follows the output of metaflac --list (sorry this is long)

i am not the expert! can somebody tell me what's wrong?
thanks
giuseppe

METADATA block #0
type: 0 (STREAMINFO)
is last: false
length: 34
minimum blocksize: 4608 samples
maximum blocksize: 4608 samples
minimum framesize: 692 bytes
maximum framesize: 16481 bytes
sample_rate: 44100 Hz
channels: 2
bits-per-sample: 16
total samples: 125224596
MD5 signature: 44fae28471633c89c27abd013bd4de60
METADATA block #1
type: 3 (SEEKTABLE)
is last: false
length: 5508
seek points: 306
point 0: sample_number=0, stream_offset=0, frame_samples=4608
point 1: sample_number=437760, stream_offset=870227, frame_samples=4608
point 2: sample_number=880128, stream_offset=1793967, frame_samples=4608
point 3: sample_number=1322496, stream_offset=2791629, frame_samples=4608
point 4: sample_number=1760256, stream_offset=3860065, frame_samples=4608
point 5: sample_number=2202624, stream_offset=4943423, frame_samples=4608
point 6: sample_number=2644992, stream_offset=5967544, frame_samples=4608
point 7: sample_number=3082752, stream_offset=7035905, frame_samples=4608
point 8: sample_number=3525120, stream_offset=8148185, frame_samples=4608
point 9: sample_number=3967488, stream_offset=9279134, frame_samples=4608
point 10: sample_number=4409856, stream_offset=10448037, frame_samples=4608
point 11: sample_number=4847616, stream_offset=11593437, frame_samples=4608
point 12: sample_number=5289984, stream_offset=12759981, frame_samples=4608
point 13: sample_number=5732352, stream_offset=13763566, frame_samples=4608
point 14: sample_number=6170112, stream_offset=14791567, frame_samples=4608
point 15: sample_number=6612480, stream_offset=15888849, frame_samples=4608
point 16: sample_number=7054848, stream_offset=17053448, frame_samples=4608
point 17: sample_number=7492608, stream_offset=18220036, frame_samples=4608
point 18: sample_number=7934976, stream_offset=19530412, frame_samples=4608
point 19: sample_number=8377344, stream_offset=20929374, frame_samples=4608
point 20: sample_number=8819712, stream_offset=22209801, frame_samples=4608
point 21: sample_number=9257472, stream_offset=23404010, frame_samples=4608
point 22: sample_number=9699840, stream_offset=24534925, frame_samples=4608
point 23: sample_number=9994752, stream_offset=25050376, frame_samples=4608
point 24: sample_number=10017792, stream_offset=25056666, frame_samples=4608
point 25: sample_number=10142208, stream_offset=25235070, frame_samples=4608
point 26: sample_number=10579968, stream_offset=25945494, frame_samples=4608
point 27: sample_number=11022336, stream_offset=27118919, frame_samples=4608
point 28: sample_number=11464704, stream_offset=28296305, frame_samples=4608
point 29: sample_number=11902464, stream_offset=29464168, frame_samples=4608
point 30: sample_number=12344832, stream_offset=30621674, frame_samples=4608
point 31: sample_number=12787200, stream_offset=31739263, frame_samples=4608
point 32: sample_number=13229568, stream_offset=32835443, frame_samples=4608
point 33: sample_number=13667328, stream_offset=33994381, frame_samples=4608
point 34: sample_number=14109696, stream_offset=35174773, frame_samples=4608
point 35: sample_number=14552064, stream_offset=36336289, frame_samples=4608
point 36: sample_number=14989824, stream_offset=37469874, frame_samples=4608
point 37: sample_number=15432192, stream_offset=38638962, frame_samples=4608
point 38: sample_number=15874560, stream_offset=39661799, frame_samples=4608
point 39: sample_number=16316928, stream_offset=40804274, frame_samples=4608
point 40: sample_number=16754688, stream_offset=41963523, frame_samples=4608
point 41: sample_number=17197056, stream_offset=43100457, frame_samples=4608
point 42: sample_number=17639424, stream_offset=44197324, frame_samples=4608
point 43: sample_number=18077184, stream_offset=45190793, frame_samples=4608
point 44: sample_number=18519552, stream_offset=46171430, frame_samples=4608
point 45: sample_number=18915840, stream_offset=46773593, frame_samples=4608
point 46: sample_number=18952704, stream_offset=46783674, frame_samples=4608
point 47: sample_number=18961920, stream_offset=46786215, frame_samples=4608
point 48: sample_number=19399680, stream_offset=47697021, frame_samples=4608
point 49: sample_number=19842048, stream_offset=48600795, frame_samples=4608
point 50: sample_number=20284416, stream_offset=49533276, frame_samples=4608
point 51: sample_number=20726784, stream_offset=50404188, frame_samples=4608
point 52: sample_number=21164544, stream_offset=51266125, frame_samples=4608
point 53: sample_number=21606912, stream_offset=52224302, frame_samples=4608
point 54: sample_number=22049280, stream_offset=53176045, frame_samples=4608
point 55: sample_number=22487040, stream_offset=54169071, frame_samples=4608
point 56: sample_number=22929408, stream_offset=55151351, frame_samples=4608
point 57: sample_number=23371776, stream_offset=56063343, frame_samples=4608
point 58: sample_number=23809536, stream_offset=56955671, frame_samples=4608
point 59: sample_number=24251904, stream_offset=57921383, frame_samples=4608
point 60: sample_number=24694272, stream_offset=59001949, frame_samples=4608
point 61: sample_number=25136640, stream_offset=59875430, frame_samples=4608
point 62: sample_number=25574400, stream_offset=60663964, frame_samples=4608
point 63: sample_number=26016768, stream_offset=61559581, frame_samples=4608
point 64: sample_number=26459136, stream_offset=62562620, frame_samples=4608
point 65: sample_number=26896896, stream_offset=63493117, frame_samples=4608
point 66: sample_number=27311616, stream_offset=64130809, frame_samples=4608
point 67: sample_number=27339264, stream_offset=64138429, frame_samples=4608
point 68: sample_number=27380736, stream_offset=64149845, frame_samples=4608
point 69: sample_number=27781632, stream_offset=64918651, frame_samples=4608
point 70: sample_number=28224000, stream_offset=65822646, frame_samples=4608
point 71: sample_number=28661760, stream_offset=66716214, frame_samples=4608
point 72: sample_number=29104128, stream_offset=67649805, frame_samples=4608
point 73: sample_number=29546496, stream_offset=68672147, frame_samples=4608
point 74: sample_number=29984256, stream_offset=69705586, frame_samples=4608
point 75: sample_number=30426624, stream_offset=70762061, frame_samples=4608
point 76: sample_number=30868992, stream_offset=71629895, frame_samples=4608
point 77: sample_number=31306752, stream_offset=72517800, frame_samples=4608
point 78: sample_number=31749120, stream_offset=73650836, frame_samples=4608
point 79: sample_number=32191488, stream_offset=74887853, frame_samples=4608
point 80: sample_number=32633856, stream_offset=75906139, frame_samples=4608
point 81: sample_number=33071616, stream_offset=76989656, frame_samples=4608
point 82: sample_number=33513984, stream_offset=78069269, frame_samples=4608
point 83: sample_number=33956352, stream_offset=79067738, frame_samples=4608
point 84: sample_number=34394112, stream_offset=80170681, frame_samples=4608
point 85: sample_number=34836480, stream_offset=81283983, frame_samples=4608
point 86: sample_number=35278848, stream_offset=82202627, frame_samples=4608
point 87: sample_number=35716608, stream_offset=83141013, frame_samples=4608
point 88: sample_number=36158976, stream_offset=84117586, frame_samples=4608
point 89: sample_number=36218880, stream_offset=84225434, frame_samples=4608
point 90: sample_number=36301824, stream_offset=84248318, frame_samples=4608
point 91: sample_number=36601344, stream_offset=84615386, frame_samples=4608
point 92: sample_number=37043712, stream_offset=85298198, frame_samples=4608
point 93: sample_number=37481472, stream_offset=85992342, frame_samples=4608
point 94: sample_number=37923840, stream_offset=86772283, frame_samples=4608
point 95: sample_number=38366208, stream_offset=87518126, frame_samples=4608
point 96: sample_number=38803968, stream_offset=88284400, frame_samples=4608
point 97: sample_number=39246336, stream_offset=89091470, frame_samples=4608
point 98: sample_number=39688704, stream_offset=89975463, frame_samples=4608
point 99: sample_number=40126464, stream_offset=90718118, frame_samples=4608
point 100: sample_number=40568832, stream_offset=91509069, frame_samples=4608
point 101: sample_number=41011200, stream_offset=92316501, frame_samples=4608
point 102: sample_number=41453568, stream_offset=93112031, frame_samples=4608
point 103: sample_number=41891328, stream_offset=93882405, frame_samples=4608
point 104: sample_number=42333696, stream_offset=94660384, frame_samples=4608
point 105: sample_number=42776064, stream_offset=95429658, frame_samples=4608
point 106: sample_number=43213824, stream_offset=96238650, frame_samples=4608
point 107: sample_number=43656192, stream_offset=96993487, frame_samples=4608
point 108: sample_number=44098560, stream_offset=97798771, frame_samples=4608
point 109: sample_number=44540928, stream_offset=98693376, frame_samples=4608
point 110: sample_number=44978688, stream_offset=99436359, frame_samples=4608
point 111: sample_number=45421056, stream_offset=100255192, frame_samples=4608
point 112: sample_number=45863424, stream_offset=101019410, frame_samples=4608
point 113: sample_number=46301184, stream_offset=101967031, frame_samples=4608
point 114: sample_number=46743552, stream_offset=102862681, frame_samples=4608
point 115: sample_number=47185920, stream_offset=103604972, frame_samples=4608
point 116: sample_number=47623680, stream_offset=104414495, frame_samples=4608
point 117: sample_number=48066048, stream_offset=105378686, frame_samples=4608
point 118: sample_number=48508416, stream_offset=106396074, frame_samples=4608
point 119: sample_number=48950784, stream_offset=107336734, frame_samples=4608
point 120: sample_number=49388544, stream_offset=108093413, frame_samples=4608
point 121: sample_number=49830912, stream_offset=108828682, frame_samples=4608
point 122: sample_number=50273280, stream_offset=109422631, frame_samples=4608
point 123: sample_number=50328576, stream_offset=109473374, frame_samples=4608
point 124: sample_number=50360832, stream_offset=109482240, frame_samples=4608
point 125: sample_number=50711040, stream_offset=110186730, frame_samples=4608
point 126: sample_number=51153408, stream_offset=111208905, frame_samples=4608
point 127: sample_number=51595776, stream_offset=112247702, frame_samples=4608
point 128: sample_number=52033536, stream_offset=113248736, frame_samples=4608
point 129: sample_number=52475904, stream_offset=114300947, frame_samples=4608
point 130: sample_number=52918272, stream_offset=115371998, frame_samples=4608
point 131: sample_number=53360640, stream_offset=116442267, frame_samples=4608
point 132: sample_number=53798400, stream_offset=117523879, frame_samples=4608
point 133: sample_number=54240768, stream_offset=118577968, frame_samples=4608
point 134: sample_number=54683136, stream_offset=119653221, frame_samples=4608
point 135: sample_number=55120896, stream_offset=120696271, frame_samples=4608
point 136: sample_number=55563264, stream_offset=121783976, frame_samples=4608
point 137: sample_number=56005632, stream_offset=122804396, frame_samples=4608
point 138: sample_number=56448000, stream_offset=123802952, frame_samples=4608
point 139: sample_number=56885760, stream_offset=124790211, frame_samples=4608
point 140: sample_number=57328128, stream_offset=125850712, frame_samples=4608
point 141: sample_number=57770496, stream_offset=126946087, frame_samples=4608
point 142: sample_number=58208256, stream_offset=128065475, frame_samples=4608
point 143: sample_number=58650624, stream_offset=129206759, frame_samples=4608
point 144: sample_number=59092992, stream_offset=130290763, frame_samples=4608
point 145: sample_number=59530752, stream_offset=130923513, frame_samples=4608
point 146: sample_number=59595264, stream_offset=130941137, frame_samples=4608
point 147: sample_number=59973120, stream_offset=131629019, frame_samples=4608
point 148: sample_number=60415488, stream_offset=132401663, frame_samples=4608
point 149: sample_number=60857856, stream_offset=133314774, frame_samples=4608
point 150: sample_number=61295616, stream_offset=134235850, frame_samples=4608
point 151: sample_number=61737984, stream_offset=135111986, frame_samples=4608
point 152: sample_number=62180352, stream_offset=136003065, frame_samples=4608
point 153: sample_number=62618112, stream_offset=136884107, frame_samples=4608
point 154: sample_number=63060480, stream_offset=137869847, frame_samples=4608
point 155: sample_number=63502848, stream_offset=138800357, frame_samples=4608
point 156: sample_number=63940608, stream_offset=139664440, frame_samples=4608
point 157: sample_number=64382976, stream_offset=140553916, frame_samples=4608
point 158: sample_number=64825344, stream_offset=141476691, frame_samples=4608
point 159: sample_number=65267712, stream_offset=142447398, frame_samples=4608
point 160: sample_number=65705472, stream_offset=143526425, frame_samples=4608
point 161: sample_number=66147840, stream_offset=144575590, frame_samples=4608
point 162: sample_number=66590208, stream_offset=145494230, frame_samples=4608
point 163: sample_number=67027968, stream_offset=146469535, frame_samples=4608
point 164: sample_number=67470336, stream_offset=147491540, frame_samples=4608
point 165: sample_number=67912704, stream_offset=148445005, frame_samples=4608
point 166: sample_number=68350464, stream_offset=149315080, frame_samples=4608
point 167: sample_number=68792832, stream_offset=150173748, frame_samples=4608
point 168: sample_number=69235200, stream_offset=151030865, frame_samples=4608
point 169: sample_number=69677568, stream_offset=152009483, frame_samples=4608
point 170: sample_number=70115328, stream_offset=153019859, frame_samples=4608
point 171: sample_number=70557696, stream_offset=154120614, frame_samples=4608
point 172: sample_number=71000064, stream_offset=155291532, frame_samples=4608
point 173: sample_number=71437824, stream_offset=156503187, frame_samples=4608
point 174: sample_number=71880192, stream_offset=157754039, frame_samples=4608
point 175: sample_number=72322560, stream_offset=159053402, frame_samples=4608
point 176: sample_number=72764928, stream_offset=160116484, frame_samples=4608
point 177: sample_number=73184256, stream_offset=160838634, frame_samples=4608
point 178: sample_number=73193472, stream_offset=160841166, frame_samples=4608
point 179: sample_number=73202688, stream_offset=160843696, frame_samples=4608
point 180: sample_number=73645056, stream_offset=161742323, frame_samples=4608
point 181: sample_number=74087424, stream_offset=162619264, frame_samples=4608
point 182: sample_number=74525184, stream_offset=163483722, frame_samples=4608
point 183: sample_number=74967552, stream_offset=164423133, frame_samples=4608
point 184: sample_number=75409920, stream_offset=165312812, frame_samples=4608
point 185: sample_number=75847680, stream_offset=166262858, frame_samples=4608
point 186: sample_number=76290048, stream_offset=167177786, frame_samples=4608
point 187: sample_number=76732416, stream_offset=168188403, frame_samples=4608
point 188: sample_number=77174784, stream_offset=169158234, frame_samples=4608
point 189: sample_number=77612544, stream_offset=170105037, frame_samples=4608
point 190: sample_number=78054912, stream_offset=171099219, frame_samples=4608
point 191: sample_number=78497280, stream_offset=172081964, frame_samples=4608
point 192: sample_number=78935040, stream_offset=173129916, frame_samples=4608
point 193: sample_number=79377408, stream_offset=174182550, frame_samples=4608
point 194: sample_number=79819776, stream_offset=175183231, frame_samples=4608
point 195: sample_number=80257536, stream_offset=176164958, frame_samples=4608
point 196: sample_number=80699904, stream_offset=177247969, frame_samples=4608
point 197: sample_number=81142272, stream_offset=178158869, frame_samples=4608
point 198: sample_number=81584640, stream_offset=179050434, frame_samples=4608
point 199: sample_number=82022400, stream_offset=179953350, frame_samples=4608
point 200: sample_number=82455552, stream_offset=180602696, frame_samples=4608
point 201: sample_number=82464768, stream_offset=180605221, frame_samples=4608
point 202: sample_number=82501632, stream_offset=180615374, frame_samples=4608
point 203: sample_number=82907136, stream_offset=181485773, frame_samples=4608
point 204: sample_number=83344896, stream_offset=182438560, frame_samples=4608
point 205: sample_number=83787264, stream_offset=183403605, frame_samples=4608
point 206: sample_number=84229632, stream_offset=184365022, frame_samples=4608
point 207: sample_number=84672000, stream_offset=185358339, frame_samples=4608
point 208: sample_number=85109760, stream_offset=186408701, frame_samples=4608
point 209: sample_number=85552128, stream_offset=187660189, frame_samples=4608
point 210: sample_number=85994496, stream_offset=188821525, frame_samples=4608
point 211: sample_number=86432256, stream_offset=189833632, frame_samples=4608
point 212: sample_number=86874624, stream_offset=191038921, frame_samples=4608
point 213: sample_number=87316992, stream_offset=192241303, frame_samples=4608
point 214: sample_number=87754752, stream_offset=193333298, frame_samples=4608
point 215: sample_number=88197120, stream_offset=194219238, frame_samples=4608
point 216: sample_number=88639488, stream_offset=195311967, frame_samples=4608
point 217: sample_number=89081856, stream_offset=196540459, frame_samples=4608
point 218: sample_number=89459712, stream_offset=197298270, frame_samples=4608
point 219: sample_number=89519616, stream_offset=197315932, frame_samples=4608
point 220: sample_number=89528832, stream_offset=197318451, frame_samples=4608
point 221: sample_number=89961984, stream_offset=198100821, frame_samples=4608
point 222: sample_number=90404352, stream_offset=198991478, frame_samples=4608
point 223: sample_number=90842112, stream_offset=199902056, frame_samples=4608
point 224: sample_number=91284480, stream_offset=200869709, frame_samples=4608
point 225: sample_number=91726848, stream_offset=201873568, frame_samples=4608
point 226: sample_number=92164608, stream_offset=202839929, frame_samples=4608
point 227: sample_number=92606976, stream_offset=203858831, frame_samples=4608
point 228: sample_number=93049344, stream_offset=204848918, frame_samples=4608
point 229: sample_number=93491712, stream_offset=205800300, frame_samples=4608
point 230: sample_number=93929472, stream_offset=206818845, frame_samples=4608
point 231: sample_number=94371840, stream_offset=207821365, frame_samples=4608
point 232: sample_number=94814208, stream_offset=208812824, frame_samples=4608
point 233: sample_number=95251968, stream_offset=209724794, frame_samples=4608
point 234: sample_number=95694336, stream_offset=210685925, frame_samples=4608
point 235: sample_number=96136704, stream_offset=211645568, frame_samples=4608
point 236: sample_number=96574464, stream_offset=212595820, frame_samples=4608
point 237: sample_number=97016832, stream_offset=213597807, frame_samples=4608
point 238: sample_number=97459200, stream_offset=214612697, frame_samples=4608
point 239: sample_number=97901568, stream_offset=215631392, frame_samples=4608
point 240: sample_number=98339328, stream_offset=216667914, frame_samples=4608
point 241: sample_number=98781696, stream_offset=217707717, frame_samples=4608
point 242: sample_number=99224064, stream_offset=218780190, frame_samples=4608
point 243: sample_number=99661824, stream_offset=219847960, frame_samples=4608
point 244: sample_number=100104192, stream_offset=220837091, frame_samples=4608
point 245: sample_number=100546560, stream_offset=221743480, frame_samples=4608
point 246: sample_number=100988928, stream_offset=222695627, frame_samples=4608
point 247: sample_number=101426688, stream_offset=223630477, frame_samples=4608
point 248: sample_number=101869056, stream_offset=224565225, frame_samples=4608
point 249: sample_number=102311424, stream_offset=225339072, frame_samples=4608
point 250: sample_number=102371328, stream_offset=225422673, frame_samples=4608
point 251: sample_number=102477312, stream_offset=225451854, frame_samples=4608
point 252: sample_number=102749184, stream_offset=225974559, frame_samples=4608
point 253: sample_number=103191552, stream_offset=226858143, frame_samples=4608
point 254: sample_number=103633920, stream_offset=227688354, frame_samples=4608
point 255: sample_number=104071680, stream_offset=228549084, frame_samples=4608
point 256: sample_number=104514048, stream_offset=229404429, frame_samples=4608
point 257: sample_number=104956416, stream_offset=230269125, frame_samples=4608
point 258: sample_number=105398784, stream_offset=231164300, frame_samples=4608
point 259: sample_number=105836544, stream_offset=232102954, frame_samples=4608
point 260: sample_number=106278912, stream_offset=232959727, frame_samples=4608
point 261: sample_number=106721280, stream_offset=233806146, frame_samples=4608
point 262: sample_number=107159040, stream_offset=234720513, frame_samples=4608
point 263: sample_number=107601408, stream_offset=235777349, frame_samples=4608
point 264: sample_number=108043776, stream_offset=236688235, frame_samples=4608
point 265: sample_number=108481536, stream_offset=237553681, frame_samples=4608
point 266: sample_number=108923904, stream_offset=238479591, frame_samples=4608
point 267: sample_number=109366272, stream_offset=239304828, frame_samples=4608
point 268: sample_number=109808640, stream_offset=240146076, frame_samples=4608
point 269: sample_number=110246400, stream_offset=241011197, frame_samples=4608
point 270: sample_number=110688768, stream_offset=241861243, frame_samples=4608
point 271: sample_number=111131136, stream_offset=242707519, frame_samples=4608
point 272: sample_number=111568896, stream_offset=243486642, frame_samples=4608
point 273: sample_number=112011264, stream_offset=244332885, frame_samples=4608
point 274: sample_number=112453632, stream_offset=245252970, frame_samples=4608
point 275: sample_number=112896000, stream_offset=246181952, frame_samples=4608
point 276: sample_number=113333760, stream_offset=247095850, frame_samples=4608
point 277: sample_number=113776128, stream_offset=248048918, frame_samples=4608
point 278: sample_number=114218496, stream_offset=248964377, frame_samples=4608
point 279: sample_number=114656256, stream_offset=249870991, frame_samples=4608
point 280: sample_number=114928128, stream_offset=250331076, frame_samples=4608
point 281: sample_number=115047936, stream_offset=250363891, frame_samples=4608
point 282: sample_number=115098624, stream_offset=250422633, frame_samples=4608
point 283: sample_number=115540992, stream_offset=251139213, frame_samples=4608
point 284: sample_number=115978752, stream_offset=251949314, frame_samples=4608
point 285: sample_number=116421120, stream_offset=252716875, frame_samples=4608
point 286: sample_number=116863488, stream_offset=253448488, frame_samples=4608
point 287: sample_number=117305856, stream_offset=254294684, frame_samples=4608
point 288: sample_number=117743616, stream_offset=255084000, frame_samples=4608
point 289: sample_number=118185984, stream_offset=255830642, frame_samples=4608
point 290: sample_number=118628352, stream_offset=256692616, frame_samples=4608
point 291: sample_number=119066112, stream_offset=257558542, frame_samples=4608
point 292: sample_number=119508480, stream_offset=258330704, frame_samples=4608
point 293: sample_number=119950848, stream_offset=259091712, frame_samples=4608
point 294: sample_number=120388608, stream_offset=259842638, frame_samples=4608
point 295: sample_number=120830976, stream_offset=260740312, frame_samples=4608
point 296: sample_number=121273344, stream_offset=261608278, frame_samples=4608
point 297: sample_number=121715712, stream_offset=262338555, frame_samples=4608
point 298: sample_number=122153472, stream_offset=263130361, frame_samples=4608
point 299: sample_number=122595840, stream_offset=263846603, frame_samples=4608
point 300: sample_number=123038208, stream_offset=264561767, frame_samples=4608
point 301: sample_number=123475968, stream_offset=265450363, frame_samples=4608
point 302: sample_number=123918336, stream_offset=266274921, frame_samples=4608
point 303: sample_number=124360704, stream_offset=266998944, frame_samples=4608
point 304: sample_number=124798464, stream_offset=267689470, frame_samples=4608
point 305: PLACEHOLDER
METADATA block #2
type: 5 (CUESHEET)
is last: false
length: 1140
media catalog number:
lead-in: 88200
is CD: true
number of tracks: 13
track[0]
offset: 0
number: 1
ISRC:
type: AUDIO
pre-emphasis: false
number of index points: 1
index[0]
offset: 0
number: 1
track[1]
offset: 9996588
number: 2
ISRC:
type: AUDIO
pre-emphasis: false
number of index points: 2
index[0]
offset: 0
number: 0
index[1]
offset: 22344
number: 1
track[2]
offset: 18920076
number: 3
ISRC:
type: AUDIO
pre-emphasis: false
number of index points: 2
index[0]
offset: 0
number: 0
index[1]
offset: 37044
number: 1
track[3]
offset: 27314364
number: 4
ISRC:
type: AUDIO
pre-emphasis: false
number of index points: 2
index[0]
offset: 0
number: 0
index[1]
offset: 69384
number: 1
track[4]
offset: 36221976
number: 5
ISRC:
type: AUDIO
pre-emphasis: false
number of index points: 2
index[0]
offset: 0
number: 0
index[1]
offset: 82908
number: 1
track[5]
offset: 50332212
number: 6
ISRC:
type: AUDIO
pre-emphasis: false
number of index points: 2
index[0]
offset: 0
number: 0
index[1]
offset: 31752
number: 1
track[6]
offset: 59531472
number: 7
ISRC:
type: AUDIO
pre-emphasis: false
number of index points: 2
index[0]
offset: 0
number: 0
index[1]
offset: 66444
number: 1
track[7]
offset: 73186008
number: 8
ISRC:
type: AUDIO
pre-emphasis: false
number of index points: 2
index[0]
offset: 0
number: 0
index[1]
offset: 10584
number: 1
track[8]
offset: 82459356
number: 9
ISRC:
type: AUDIO
pre-emphasis: false
number of index points: 2
index[0]
offset: 0
number: 0
index[1]
offset: 45276
number: 1
track[9]
offset: 89464200
number: 10
ISRC:
type: AUDIO
pre-emphasis: false
number of index points: 2
index[0]
offset: 0
number: 0
index[1]
offset: 68208
number: 1
track[10]
offset: 102374328
number: 11
ISRC:
type: AUDIO
pre-emphasis: false
number of index points: 2
index[0]
offset: 0
number: 0
index[1]
offset: 103488
number: 1
track[11]
offset: 114929892
number: 12
ISRC:
type: AUDIO
pre-emphasis: false
number of index points: 2
index[0]
offset: 0
number: 0
index[1]
offset: 122304
number: 1
track[12]
offset: 125224596
number: 170 (LEAD-OUT)
METADATA block #3
type: 4 (VORBIS_COMMENT)
is last: false
length: 282
vendor string: reference libFLAC 1.1.2 20050205
comments: 6
comment[0]: REPLAYGAIN_REFERENCE_LOUDNESS=89.0 dB
comment[1]: REPLAYGAIN_TRACK_GAIN=-8.20 dB
comment[2]: REPLAYGAIN_TRACK_PEAK=1.00000000
comment[3]: REPLAYGAIN_ALBUM_GAIN=-8.20 dB
comment[4]: REPLAYGAIN_ALBUM_PEAK=1.00000000
comment[5]: Comment=Encoded by FLAC v1.1.3a with FLAC Frontend v1.7.1
METADATA block #4
type: 1 (PADDING)
is last: true
length: 9

ginopalletta
Posts: 11
Joined: Fri Jan 30, 2009 8:14 pm

Re: embedded cusheet not working

Post by ginopalletta » Sat Jan 31, 2009 7:25 pm

ok i removed the CUESHEET metadata block from the flac file and it now works and imports it. See my previous post for the entire metaflac --list

this way i can keep the .cue and .flac into the same dir and into the watch folder :D

Post Reply

Who is online

Users browsing this forum: No registered users and 1 guest