How to use Play to play the "cue" file?

Discuss Play, an open source multi-format audio player.
shino
Posts: 9
Joined: Tue Mar 31, 2009 10:05 am

How to use Play to play the "cue" file?

Post by shino » Tue Mar 31, 2009 10:15 am

I don't know how to use it.... How to play "cue" file?

User avatar
sbooth
Site Admin
Posts: 2445
Joined: Fri Dec 23, 2005 7:45 am
Location: USA
Contact:

Re: How to use Play to play the "cue" file?

Post by sbooth » Tue Mar 31, 2009 3:49 pm

Add the cue file to your library, and the individual tracks should show up.

shino
Posts: 9
Joined: Tue Mar 31, 2009 10:05 am

Re: How to use Play to play the "cue" file?

Post by shino » Tue Mar 31, 2009 5:37 pm

I already try that way to play the cue file but it doesn't work. I add the cue to library but it didn't show up. Now it just can play ape or other file. :|

User avatar
sbooth
Site Admin
Posts: 2445
Joined: Fri Dec 23, 2005 7:45 am
Location: USA
Contact:

Re: How to use Play to play the "cue" file?

Post by sbooth » Tue Mar 31, 2009 5:53 pm

Play is a bit finicky when it comes to parsing cue files. Are there any error messages in Console?

shino
Posts: 9
Joined: Tue Mar 31, 2009 10:05 am

Re: How to use Play to play the "cue" file?

Post by shino » Tue Mar 31, 2009 6:20 pm

where is console? My cue file all can play by the Foobar.

RonaldPR
Posts: 433
Joined: Tue May 30, 2006 8:27 am
Location: Amsterdam, Netherlands

Re: How to use Play to play the "cue" file?

Post by RonaldPR » Tue Mar 31, 2009 6:49 pm

Console is in /Applications/Utilities/
Open Console and see if any error messages are written to Console log when you try to add the cue file to Play library.

shino
Posts: 9
Joined: Tue Mar 31, 2009 10:05 am

Re: How to use Play to play the "cue" file?

Post by shino » Tue Mar 31, 2009 7:16 pm

12:26:19 Play[127] Error loading /Users/haoyu/Library/Contextual Menu Items/iGetterCMPlugIn.plugin/Contents/MacOS/iGetterCMPlugIn: dlopen(/Users/haoyu/Library/Contextual Menu

Items/iGetterCMPlugIn.plugin/Contents/MacOS/iGetterCMPlugIn, 262): no suitable image found. Did find:

/Users/haoyu/Library/Contextual Menu Items/iGetterCMPlugIn.plugin/Contents/MacOS/iGetterCMPlugIn: mach-o, but wrong architecture

12:26:19 Play[127] Cannot find function pointer iGetterCMPluginFactory for factory 780C03AF-B5CE-11D6-A0A9-0005029E5A27 in CFBundle/CFPlugIn 0x54d27d0 </Users/haoyu/Library/Contextual Menu Items/iGetterCMPlugIn.plugin> (bundle, not

loaded)

User avatar
sbooth
Site Admin
Posts: 2445
Joined: Fri Dec 23, 2005 7:45 am
Location: USA
Contact:

Re: How to use Play to play the "cue" file?

Post by sbooth » Tue Mar 31, 2009 8:03 pm

Can you post the cue that isn't working?

shino
Posts: 9
Joined: Tue Mar 31, 2009 10:05 am

Re: How to use Play to play the "cue" file?

Post by shino » Tue Mar 31, 2009 9:41 pm

All of them are not working.
:|
What's wrong with it? I need set something?

User avatar
sbooth
Site Admin
Posts: 2445
Joined: Fri Dec 23, 2005 7:45 am
Location: USA
Contact:

Re: How to use Play to play the "cue" file?

Post by sbooth » Tue Mar 31, 2009 10:00 pm

I'm wondering if Play can't find the audio file the cue sheet refers to. Perhaps seeing a sample cue will give me some insight...

shino
Posts: 9
Joined: Tue Mar 31, 2009 10:05 am

Re: How to use Play to play the "cue" file?

Post by shino » Tue Mar 31, 2009 10:17 pm

REM GENRE Celtic
REM DATE 2004
CATALOG 0724386023322
REM COMMENT "ExactAudioCopy v0.95b5"
PERFORMER "Celtic Woman"
TITLE "Celtic Woman"
FILE "Celtic.Woman.-.[Celtic.Woman].专辑.(Flac).flac" WAVE
TRACK 01 AUDIO
TITLE "Last Rose of Summer (Intro)/Walking in the Air"
PERFORMER "Celtic Woman"
INDEX 01 00:00:00
TRACK 02 AUDIO
TITLE "May It Be"
PERFORMER "Celtic Woman"
INDEX 00 04:20:57
INDEX 01 04:22:02
TRACK 03 AUDIO
TITLE "Isle of Inisfree"
PERFORMER "Celtic Woman"
INDEX 00 08:08:03
INDEX 01 08:09:66
TRACK 04 AUDIO
TITLE "Danny Boy"
PERFORMER "Celtic Woman"
INDEX 00 11:36:22
INDEX 01 11:38:26
TRACK 05 AUDIO
TITLE "One World"
PERFORMER "Celtic Woman"
INDEX 00 15:03:38
INDEX 01 15:04:61
TRACK 06 AUDIO
TITLE "Ave Maria"
PERFORMER "Celtic Woman"
INDEX 00 18:53:42
INDEX 01 18:54:60
TRACK 07 AUDIO
TITLE "Send Me a Song"
PERFORMER "Celtic Woman"
INDEX 00 21:48:31
INDEX 01 21:50:67
TRACK 08 AUDIO
TITLE "Siuil A Run (Walk My Love)"
PERFORMER "Celtic Woman"
INDEX 00 26:12:21
INDEX 01 26:14:29
TRACK 09 AUDIO
TITLE "Orinoco Flow"
PERFORMER "Celtic Woman"
INDEX 01 29:31:24
TRACK 10 AUDIO
TITLE "Someday"
PERFORMER "Celtic Woman"
INDEX 01 33:03:53
TRACK 11 AUDIO
TITLE "She Moved Thru' The Fair"
PERFORMER "Celtic Woman"
INDEX 00 37:24:36
INDEX 01 37:25:74
TRACK 12 AUDIO
TITLE "Nella Fantasia"
PERFORMER "Celtic Woman"
INDEX 01 40:56:68
TRACK 13 AUDIO
TITLE "The Butterfly"
PERFORMER "Celtic Woman"
INDEX 00 44:37:28
INDEX 01 44:39:21
TRACK 14 AUDIO
TITLE "Harry's Game"
PERFORMER "Celtic Woman"
INDEX 00 47:40:13
INDEX 01 47:41:38
TRACK 15 AUDIO
TITLE "The Soft Goodbye"
PERFORMER "Celtic Woman"
INDEX 00 50:12:07
INDEX 01 50:13:63
TRACK 16 AUDIO
TITLE "You Raise Me Up"
PERFORMER "Celtic Woman"
INDEX 01 54:12:72
TRACK 17 AUDIO
TITLE "The Ashoken Farewell/The Contradiction"
PERFORMER "Celtic Woman"
INDEX 00 58:44:23
INDEX 01 58:47:07
TRACK 18 AUDIO
TITLE "Si Do Mhaimeo I (The Wealthy Widow)"
PERFORMER "Celtic Woman"
INDEX 01 62:57:21

shino
Posts: 9
Joined: Tue Mar 31, 2009 10:05 am

Re: How to use Play to play the "cue" file?

Post by shino » Tue Mar 31, 2009 10:19 pm

The flac and cue are in the same file

User avatar
sbooth
Site Admin
Posts: 2445
Joined: Fri Dec 23, 2005 7:45 am
Location: USA
Contact:

Re: How to use Play to play the "cue" file?

Post by sbooth » Wed Apr 01, 2009 7:07 am

So this is a FLAC file with a cue sheet embedded in a comment? If so, Play does not support this for FLAC files- only the native cue sheet metadata block is supported in FLAC.

shino
Posts: 9
Joined: Tue Mar 31, 2009 10:05 am

Re: How to use Play to play the "cue" file?

Post by shino » Wed Apr 01, 2009 8:12 am

Could you show me what is the right type of cue file :D

User avatar
sbooth
Site Admin
Posts: 2445
Joined: Fri Dec 23, 2005 7:45 am
Location: USA
Contact:

Re: How to use Play to play the "cue" file?

Post by sbooth » Wed Apr 01, 2009 4:27 pm

The same cue you posted should work, as long as it is a plain text file with a .cue extension.

Post Reply

Who is online

Users browsing this forum: No registered users and 1 guest